[vdr] Converting H264 vdr 1.7.0 recordings to xvid (or x264) in avi container

dplu at free.fr dplu at free.fr
Sun Nov 23 20:24:06 CET 2008


Hi

It is uploading but will take time .. low adsl speed.
By the way recoding recognized the format, and popcorn play it without problem
but not sure it is the good speed .. will have to check more

recode log :

Input #0, mpeg, from '001.vdr':
  Duration: 00:00:50.10, start: 46302.005978, bitrate: 16499 kb/s
    Stream #0.0[0x1e0]: Video: h264, yuv420p, 1440x1080 [PAR 4:3 DAR 16:9],
25.00 tb(r)
    Stream #0.1[0x1c0]: Audio: mp2, 48000 Hz, stereo, s16, 256 kb/s
Output #0, mpegts, to 'bbc.ts':
    Stream #0.0: Video: 0x0000, yuv420p, 1440x1080, q=2-31, 25.00 tb(c)
    Stream #0.1: Audio: mp2, 48000 Hz, stereo, s16, 256 kb/s
Stream mapping:
  Stream #0.0 -> #0.0
  Stream #0.1 -> #0.1
Press [q] to stop encoding
frame= 1236 fps=477 q=-1.0 Lsize=  118961kB time=0.02 bitrate=40605305.3kbits/s
video:96562kB audio:1kB global headers:0kB muxing overhead 23.194904%


I will post the link when completed

Best regards

Selon Artem Makhutov <artem at makhutov.org>:

> Hi,
>
> On Sun, Nov 23, 2008 at 07:36:18PM +0100, dplu at free.fr wrote:
> > Hi Artem
> >
> > Yes you right, it was a so long time I've posted, stayed on my curent
> solution.
> > Just tested your solution and this is very easy and fast, some segfault but
> due
> > to discontinuity on test stream
> >
> > I've got the same error than getting it from streamdev in ts format (with
> wget)
> > and trying to read it with mplayer, the fps is not found but not a problem
> at
> > all
> >
> > Playing bbc.ts.
> > TS file format detected.
> > VIDEO H264(pid=256) NO AUDIO!  NO SUBS (yet)!  PROGRAM N. 1
> > FPS not specified in the header or invalid, use the -fps option.
> > No stream found.
>
> Can you upload the recoding somewhere?
>
> Regards, Artem
>
> _______________________________________________
> vdr mailing list
> vdr at linuxtv.org
> http://www.linuxtv.org/cgi-bin/mailman/listinfo/vdr
>





More information about the vdr mailing list