[vdr] VDR doesn't add new h264 SD DVB-T channels

Magnus H magnus at alefors.se
Fri Mar 12 09:26:47 CET 2010


Hi. Since february there are some new h264 SD channels in the Swedish DVB-T
network. I have my VDR 1.7.13 setup to automatically add transponders and
channels and that has always worked before, both on DVB-T and -S/S2.
However, if I manually add one channel on this new frequency:

Discovery T&L;Discovery
Communications:506000000:B8C23G8M64T8Y0:T:27500:489=27:0:0:0:570:8945:1026:0

, containing:

  Stream #0.0[0x1e9]: Video: h264, yuv420p, 544x576 [PAR 64:33 DAR 544:297],
25 fps, 25 tbr, 90k tbn, 50 tbc
  Stream #0.1[0x1e8](swe): Audio: aac, 32000 Hz, 5 channels, s16, 295 kb/s

, it works just fine. But no other channels are automatically added. Can
someone point me to where in the VDR code I should look to add some debug
prints?

/Magnus H





More information about the vdr mailing list