[vdr] Problem creating index files

Gerald Raaf gerald.raaf at t-online.de
Sun Oct 3 14:55:31 CEST 2010


Hi,
        
i had also this problem with some recordings. I cut the movie again an
throw away the first frame (sometimes i had to cut away second and third
frame)

maybe this will help you also.

kind regards
gerald

Am Sonntag, den 03.10.2010, 15:06 +0300 schrieb Teemu Suikki:
> Hi,
> 
> just a small update, it seems the TS file is indeed somehow corrupt..
> I tried simple stream copy with ffmpeg and it doesn't work either:
> 
> Seems stream 1 codec frame rate differs from container frame rate:
> 90000.00 (90000/1) -> 25.00 (25/1)
> Input #0, mpegts, from '00001.ts':
>  Duration: 00:18:58.50, start: 53222.923633, bitrate: 3821 kb/s
>  Program 1
>    Stream #0.0[0x44]: Audio: mp2, 48000 Hz, 2 channels, s16, 224 kb/s
>    Stream #0.1[0x45]: Video: mpeg2video, 25 tbr, 90k tbn, 90k tbc
> [IMGUTILS @ 0xbfa239e8] Picture size 0x0 is invalid
> Cannot allocate temp picture, check pix fmt
> 
> 
> ffmpeg works fine with recordings where vdr index generation works too..
> 
> Any easy way to fix these somehow?
> 




More information about the vdr mailing list