[vdr] vdr xine-lib eac3

dplu dplu at free.fr
Mon Sep 27 21:33:25 CEST 2010


Hi

@Darren Salt 
Oupss you're right, I had another old patch for e-ac3 support auto applied 
I clean all now

@Jose Alberto
By the way, we are two person having made same test : not working with this 
sample of french DVB-T HD , here is detail given by ffplay

sample : http://dl.free.fr/cMNuFuG8X

    Stream #0.0[0xdc]: Video: h264, yuv420p, 1440x1080 [PAR 4:3 DAR 16:9], 50 
fps, 50 tbr, 90k tbn, 50 tbc
    Stream #0.1[0xe7](qaa): Audio: eac3, 48000 Hz, 5.1, s16, 256 kb/s
    Stream #0.2[0xe6](fra): Audio: eac3, 48000 Hz, stereo, s16, 128 kb/s
    Stream #0.3[0xf0](fra): Subtitle: dvbsub

Can you please test this small file (48 Mo) and tell us if OK or not, this 
should be a good direction to go. I will rebuild a full new dev env on my 
machine

Many thanks for your help

Best regards

Le Sunday 26 September 2010 20:56:32 Darren Salt, vous avez écrit :
> I demand that dplu may or may not have written...
>
> [snip]
>
> > http://hg.debian.org/hg/xine-lib/xine-lib-1.2/
> > is not allways well synchronized, for example the patch for demux_ts on
> > 1.1.18 changeset a1ba73e0b475 (april 9) is not on 1.2
>
> It is...
>
> [snip]




More information about the vdr mailing list